Descargar XAPK | La sociedad literaria y del pastel de cรกscara de p... | Embedded Systems and Wireless Technology; Theory and Practical Applications




+ Reply to Thread
Results 1 to 2 of 2
  1. #1
    Administrators Duckload.us's Avatar
    Join Date
    Dec 2010
    Posts
    95,658
    Thanks
    9
    Thanked 97,613 Times in 46,947 Posts

    Question [ฝรั่ง]-[ไฟล์ mkv จากนอกภาพคมชัดสุดๆ+เสียงไทยโรงคมชัด] mission impossible 6 fallout (2018) - มิชชั่น อิมพอสซิเบิ้ล 6 ฟอลล์เอาท์ 1080p @henrykai -[พากย์ไทยโรง]



    พบกับการกลับมาของทอม ครูซ ใน MISSION: IMPOSSIBLE – FALLOUT มิชชั่น: อิมพอสซิเบิ้ล – ฟอลล์เอาท์ ซึ่งอีธาน ฮันท์ (ทอม ครูซ) และทีม IMF (อเล็ก บอลด์วิน, ไซม่อน เพ็กก์, วิง เรเมส) พร้อมด้วยพันธมิตร (รีเบ็คกา เฟอร์กูสัน และมิเชลล์ โมนาแฮน) ต้องกลับมาในปฏิบัติการที่ต้องแข่งกับเวลา สองปีหลังจากจับตัวโซโลมอน เลน หัวหน้ากลุ่มก่อการร้ายซินดิเคต กลุ่มซินดิเคตได้กลายสภาพเป็นกลุ่มใหม่ชื่อ ดิอะพอสเทิลส์ (The Apostles) ที่เบลฟาสต์ อีธาน ฮันต์ สายลับ IMF ได้รับภารกิจให้ขัดขวางการขายแกนพลูโตเนียมสามลูกให้ กลุ่มดิอะพอสเทิลส์

    นอกเหนือจากนักแสดงทีมเดิมแล้ว ภาพยนตร์ยังได้ เฮนรี่ คาวิลล์ (กับหนวดอันลือลั่น), แองเจลา บาสเส็ตต์ และ วาเนสซา เคอร์บี้ มาร่วมงานด้วย คริสโตเฟอร์ แม็คควอร์รี่ ยังคงรับหน้าที่ผู้กำกับในภาคนี้เช่นเดิม เพิ่มเติมคือฉากฮาๆ กับซีนดราม่าโรแมนซ์นิดหน่อย.....

    บทวิจารณ์

    ถ้าจะให้พูดกันตามตรง Mission Impossible 6 มิชชั่น อิมพอสสิเบิ้ล ฟอลล์เอาท์ ก็เป็นหนังที่สนุก มีฉากต่อสู้ที่เร้าใจและยาวนาน ซึ่งสำหรับคนที่ชอบฉากแอคชั่นก็คงจะปลื้มปริ่มอยู่ไม ่น้อย ไม่ว่าจะบนรถ บนเรือ หรือบนเฮลิคอปเตอร์ก็มีหมด เรียกได้ว่าทุ่มทุนสร้างแบบงานช้างเลยทีเดียว ซึ่งทีมงานทุกคนก็ช่วยทำมันออกมาได้เป็นอย่างดี นักแสดงมีความสามารถ ตัดต่อได้ลื่นไหล ดนตรีที่เคยรู้สึกว่ามันยืดเกินไปก็ทำให้กระชับมากขึ ้น โดยรวมแล้วผ่านเกณฑ์มาตรฐานหนังแนวต่อสู้ได้สบายๆ แต่เราว่าบางทีมันก็ยืดเยื้อไปหน่อย ในลักษณะของปมซ้อนปม ซึ่งมีหลายปมมากเกินไป จนมันรู้สึกว่าดูเยอะไปนิด

    ในส่วนของฉากรักโรแมนติกก็พอมีให้เห็น ซึ่งคารมเยอะก็ไม่ได้ยิ่งหย่อนไปกว่าฉากแอคชั่น เพราะมันเป็นความรักระหว่างเราสองสามสี่ห้าหกคน อลม่านรักกันไปก็รักกันมา หักหลังกันไปก็หักหลังกันมา แต่รวมๆ แล้วก็ลุ้นเอาใจช่วยตัวเอกให้ทำภารกิจให้ลุล่วงให้ได ้ สมกับชื่อเรื่องที่ว่า Mission Impossible 6 มิชชั่น อิมพอสสิเบิ้ล ฟอลล์เอาท์ เพราะบางภารกิจมันก็ดูเป็นไปแทบไม่ได้เลย

    Video
    ID : 1
    Format : AVC
    Format/Info : Advanced Video Codec
    Format profile : [email protected]
    Format settings : CABAC / 4 Ref Frames
    Format settings, CABAC : Yes
    Format settings, RefFrames : 4 frames
    Codec ID : V_MPEG4/ISO/AVC
    Duration : 2 h 27 min
    Bit rate : 5 124 kb/s
    Width : 1 920 pixels
    Height : 1 012 pixels
    Display aspect ratio : 1.897
    Frame rate mode : Constant
    Frame rate : 23.976 (24000/1001) FPS
    Color space : YUV
    Chroma subsampling : 4:2:0
    Bit depth : 8 bits
    Scan type : Progressive
    Bits/(Pixel*Frame) : 0.110
    Stream size : 5.29 GiB (86%)
    Title : MISSION IMPOSSIBLE 6 FALLOUT (2018) - มิชชั่น อิมพอสซิเบิ้ล 6 ฟอลล์เอาท์ 1080P @HENRYKAI - ใส่เสียงไทยโรง
    Language : English
    Default : Yes
    Forced : No
    Color range : Limited
    Color primaries : BT.709
    Transfer characteristics : BT.709
    Matrix coefficients : BT.709

    Audio #1
    ID : 2
    Format : AC-3
    Format/Info : Audio Coding 3
    Format settings, Endianness : Big
    Codec ID : A_AC3
    Duration : 2 h 27 min
    Bit rate mode : Constant
    Bit rate : 384 kb/s
    Channel(s) : 6 channels
    Channel positions : Front: L C R, Side: L R, LFE
    Sampling rate : 48.0 kHz
    Frame rate : 31.250 FPS (1536 SPF)
    Bit depth : 16 bits
    Compression mode : Lossy
    Delay relative to video : -43 ms
    Stream size : 405 MiB (6%)
    Title : ENG AC-3 5.1 @HENRYKAI
    Language : English
    Service kind : Complete Main
    Default : No
    Forced : No

    Audio #2
    ID : 3
    Format : AC-3
    Format/Info : Audio Coding 3
    Format settings, Endianness : Big
    Codec ID : A_AC3
    Duration : 2 h 27 min
    Bit rate mode : Constant
    Bit rate : 448 kb/s
    Channel(s) : 2 channels
    Channel positions : Front: L R
    Sampling rate : 44.1 kHz
    Frame rate : 28.711 FPS (1536 SPF)
    Bit depth : 16 bits
    Compression mode : Lossy
    Delay relative to video : 2 s 57 ms
    Stream size : 472 MiB (7%)
    Title : THAI AC-3 2.0 @HENRYKAI
    Language : Thai
    Service kind : Complete Main
    Default : Yes
    Forced : No

    Menu
    00:00:00.000 : en:1
    00:10:35.000 : en:2
    00:17:09.000 : en:3
    00:26:54.000 : en:4
    00:35:53.000 : en:5
    00:49:14.000 : en:6
    00:59:56.000 : en:7
    01:10:18.000 : en:8
    01:17:01.000 : en:9
    01:28:22.000 : en:10
    01:39:02.000 : en:11
    01:46:19.000 : en:12
    01:55:37.000 : en:13
    02:03:02.000 : en:14
    02:13:52.000 : en:15
    02:19:38.000 : en:16






    Cr : HENRYKAI

    Download: cornfile
    http://cornfile.com/u8egdxjuaitn
    Download: mekafile
    http://www.mekafile.com/dl.php?f=wdacc2bMkMLa

  2. The Following 5 Users Say Thank You to Duckload.us For This Useful Post:

    agg001 (11-08-2018), noi54 (11-09-2018), smakha (11-09-2018), Tellmon (11-09-2018), Wesker_TOT (11-10-2018)

  3. #2
    Senior Member
    Join Date
    Jun 2014
    Posts
    337
    Thanks
    0
    Thanked 0 Times in 0 Posts
    ขอบคุณครับ

+ Reply to Thread

Thread Information

Users Browsing this Thread

There are currently 1 users browsing this thread. (0 members and 1 guests)

     

Posting Permissions

  • You may not post new threads
  • You may not post replies
  • You may not post attachments
  • You may not edit your posts